E.T.: The Extra-Terrestrial (1982) 1080p BDRip Dual Latino-Inglés [Subt. Esp-Ing] (Ciencia ficción. Fantástico)

Max

Admin

Administrador
Registro
8 Ago 2012
Mensajes
6.238
Reacciones (ptje)
26.947

E.T_The_Extra-Terrestrial_POSTER.jpg



TÍTULO ORIGINAL: E.T.: The Extra-Terrestrial
TÍTULO EN LATINO: E.T.: El Extraterrestre
AÑO: 1982
DURACIÓN: 115 min.
PAÍS: Estados Unidos
DIRECTOR: Steven Spielberg
GUIÓN: Melissa Mathison
MÚSICA: John Williams
FOTOGRAFÍA: Allen Daviau
REPARTO: Henry Thomas, Dee Wallace, Robert MacNaughton, Drew Barrymore, Peter Coyote, C. Thomas Howell, K.C. Martel, Sean Frye, Erika Eleniak
PRODUCTORA: Universal Pictures
PREMIOS:
1982:
4 Oscar: Música, Sonido, FX, Edición sonora. 5 nominaciones incluyendo Película.
1982: 2 Globos de Oro: Drama, Música. 3 nominaciones incluyendo Director.
1982: Premio BAFTA: Música. 11 nominaciones incluyendo Película y Director.
1982: Premios David di Donatello: Mejor director extranjero.
1982: Nominada al Cesar: Mejor película extranjera.
GÉNERO: Ciencia ficción. Fantástico. Drama | Extraterrestres. Cine familiar. Amistad. Película de culto

IMDb.png
http://www.imdb.com/title/tt0083866/




SINOPSIS.png


Un pequeño ser de otro planeta se queda abandonado en la Tierra cuando su nave, al emprender el regreso, se olvida de él. Está completamente solo y tiene miedo, pero se hará amigo de un niño, que lo esconde en su casa. El pequeño y sus hermanos intentan encontrar la forma de que el pequeño extraterrestre regrese a su planeta antes de que lo encuentren los científicos y la policía.




YOUTUBE_LOGO.png






CAPTURAS.png


E_T_The_Extra-Terrestrial_CAPTURA-1.jpg


E_T_The_Extra-Terrestrial_CAPTURA-2.jpg


E_T_The_Extra-Terrestrial_CAPTURA-3.jpg


E_T_The_Extra-Terrestrial_CAPTURA-4.jpg


E_T_The_Extra-Terrestrial_CAPTURA-5.jpg


E_T_The_Extra-Terrestrial_CAPTURA-6.jpg


E_T_The_Extra-Terrestrial_CAPTURA-7.jpg


E_T_The_Extra-Terrestrial_CAPTURA-8.jpg


E_T_The_Extra-Terrestrial_CAPTURA-9.jpg


E_T_The_Extra-Terrestrial_CAPTURA-10.jpg





DATOS_TECNICOS.png


Código:
General
Complete name                    : E.T. - The Extra-Terrestrial (1982) 1080p BDRip Dual Latino-Inglés [Subt. Esp-Ing].mkv
Format                           : Matroska
Format version                   : Version 2
File size                        : 19.3 GiB
Duration                         : 1h 54mn
Overall bit rate                 : 24.2 Mbps
Movie name                       : www.club-hd.com --> E.T.: The Extra-Terrestrial (1982) 1080p BDRip Dual Latino-Inglés [Subt. Esp-Ing]
Encoded date                     : UTC 2012-10-30 21:29:33
Writing application              : mkvmerge v5.8.0 ('No Sleep / Pillow') built on Sep  2 2012 15:37:04
Writing library                  : libebml v1.2.3 + libmatroska v1.3.0

Video
ID                               : 1
Format                           : AVC
Format/Info                      : Advanced Video Codec
Format profile                   : [email protected]
Format settings, CABAC           : Yes
Format settings, ReFrames        : 4 frames
Codec ID                         : V_MPEG4/ISO/AVC
Duration                         : 1h 54mn
Bit rate                         : 20.9 Mbps
Width                            : 1 920 pixels
Height                           : 1 040 pixels
Display aspect ratio             : 16:9
Frame rate                       : 23.976 fps
Color space                      : YUV
Chroma subsampling               : 4:2:0
Bit depth                        : 8 bits
Scan type                        : Progressive
Bits/(Pixel*Frame)               : 0.436
Stream size                      : 16.7 GiB (86%)
Title                            : www.club-hd.com --> E.T.: The Extra-Terrestrial (1982) 1080p BDRip Dual Latino-Inglés [Subt. Esp-Ing]
Writing library                  : x264 core 128 r2216kMod 198a7ea
Encoding settings                : cabac=1 / ref=4 / deblock=1:-3:-3 / analyse=0x3:0x113 / me=umh / subme=9 / psy=1 / fade_compensate=0.00 / psy_rd=1.20:0.00 / mixed_ref=1 / me_range=16 / chroma_me=1 / trellis=2 / 8x8dct=1 / cqm=0 / deadzone=21,11 / fast_pskip=0 / chroma_qp_offset=-2 / threads=6 / lookahead_threads=1 / sliced_threads=0 / nr=0 / decimate=0 / interlaced=0 / bluray_compat=0 / constrained_intra=0 / bframes=8 / b_pyramid=2 / b_adapt=2 / b_bias=0 / direct=3 / weightb=1 / open_gop=0 / weightp=2 / keyint=250 / keyint_min=23 / scenecut=40 / intra_refresh=0 / rc_lookahead=40 / rc=crf / mbtree=1 / crf=19.0000 / qcomp=0.80 / qpmin=0 / qpmax=69 / qpstep=4 / ip_ratio=1.30 / aq=1:0.75
Language                         : English
Default                          : Yes
Forced                           : No

Audio #1
ID                               : 2
Format                           : AC-3
Format/Info                      : Audio Coding 3
Mode extension                   : CM (complete main)
Codec ID                         : A_AC3
Duration                         : 1h 54mn
Bit rate mode                    : Constant
Bit rate                         : 640 Kbps
Channel(s)                       : 6 channels
Channel positions                : Front: L C R, Side: L R, LFE
Sampling rate                    : 48.0 KHz
Bit depth                        : 16 bits
Compression mode                 : Lossy
Stream size                      : 525 MiB (3%)
Title                            : E.T.: The Extra-Terrestrial (1982) - Español Latino AC3 5.1
Language                         : Spanish
Default                          : Yes
Forced                           : No

Audio #2
ID                               : 3
Format                           : AC-3
Format/Info                      : Audio Coding 3
Mode extension                   : CM (complete main)
Codec ID                         : A_AC3
Duration                         : 1h 54mn
Bit rate mode                    : Constant
Bit rate                         : 640 Kbps
Channel(s)                       : 6 channels
Channel positions                : Front: L C R, Side: L R, LFE
Sampling rate                    : 48.0 KHz
Bit depth                        : 16 bits
Compression mode                 : Lossy
Stream size                      : 525 MiB (3%)
Title                            : E.T.: The Extra-Terrestrial (1982) - Inglés AC3 5.1
Language                         : English
Default                          : No
Forced                           : No

Audio #3
ID                               : 4
Format                           : DTS
Format/Info                      : Digital Theater Systems
Codec ID                         : A_DTS
Duration                         : 1h 54mn
Bit rate mode                    : Constant
Bit rate                         : 1 510 Kbps
Channel(s)                       : 6 channels
Channel positions                : Front: L C R, Side: L R, LFE
Sampling rate                    : 48.0 KHz
Bit depth                        : 24 bits
Compression mode                 : Lossy
Stream size                      : 1.21 GiB (6%)
Title                            : E.T.: The Extra-Terrestrial (1982) - Inglés DTS 5.1
Language                         : English
Default                          : No
Forced                           : No

Text #1
ID                               : 5
Format                           : UTF-8
Codec ID                         : S_TEXT/UTF8
Codec ID/Info                    : UTF-8 Plain Text
Title                            : Subtítulos Español Forzados
Language                         : Spanish
Default                          : Yes
Forced                           : No

Text #2
ID                               : 6
Format                           : UTF-8
Codec ID                         : S_TEXT/UTF8
Codec ID/Info                    : UTF-8 Plain Text
Title                            : Subtítulos Español
Language                         : Spanish
Default                          : No
Forced                           : No

Text #3
ID                               : 7
Format                           : UTF-8
Codec ID                         : S_TEXT/UTF8
Codec ID/Info                    : UTF-8 Plain Text
Title                            : Subtítulos Inglés
Language                         : English
Default                          : No
Forced                           : No

Menu
00:00:00.000                     : en:Chapter 1
00:04:49.956                     : en:Chapter 2
00:08:03.358                     : en:Chapter 3
00:09:57.096                     : en:Chapter 4
00:12:36.714                     : en:Chapter 5
00:19:24.580                     : en:Chapter 6
00:31:32.849                     : en:Chapter 7
00:36:52.293                     : en:Chapter 8
00:43:13.758                     : en:Chapter 9
00:50:34.198                     : en:Chapter 10
00:57:44.795                     : en:Chapter 11
01:00:34.130                     : en:Chapter 12
01:04:13.475                     : en:Chapter 13
01:11:30.578                     : en:Chapter 14
01:15:23.018                     : en:Chapter 15
01:23:37.346                     : en:Chapter 16
01:30:29.841                     : en:Chapter 17
01:35:41.903                     : en:Chapter 18
01:43:26.242                     : en:Chapter 19
01:50:34.920                     : en:Chapter 20




DESCARGA.png



MEGA.jpg

Tenemos TODO el material de Club-HD disponible por Mega, enlaces 100% activos y online hasta la fecha

Llévate tus cuentas Mega PRO III gratis con tu membresía VIP!
Todos los posts vivos con links de Mega.
Todo el material de Club-HD desbloqueado y sin publicidad.

Obtén más información sobre nuestras Membresías VIP


NITROFLARE-BANNER.png

Para ver este contenido oculto, debes dar click en el botón"Like", o cualquiera de las otras reacciones:

Me Gusta Me Gusta, Me Encanta Me Encanta, Jaja Jaja, Wow Wow, Triste Triste, Molesto Molesto

FIRELOAD.png

Para ver este contenido oculto, debes dar click en el botón"Like", o cualquiera de las otras reacciones:

Me Gusta Me Gusta, Me Encanta Me Encanta, Jaja Jaja, Wow Wow, Triste Triste, Molesto Molesto
 
Última edición:
grande maestro me haz puesto en un dilema, ya baje la de revolver en 720
emoticons_enojado_msnanimal_com-287.gif
 
Pero que gran aporte max supermegahipergrande el aporte jejeje :dplgar:
 
GRANDE MAESTRO!:aplausos: y en 1080P Excelente, Uyyy! dts Mlevol0

Max :LXR::aplausos:
 
Excelente maestro.. pero muy pensada amigo, me quedo con la version de tu compa Revolver!
Gran trabajo Max! :dplgar:
 
Con esta película para todos los públicos, Steven Spielberg consiguió llegar al corazón de todos, porque por encima de todo, E.T. es una película emotiva en el que a más de uno, se le hace un nudo en la garganta viendo las escenas finales.
Estamos ante un bello canto a la amistad y a una amistad más allá de las fronteras, pues tiene como protagonistas a un niño y a un simpático y entrañable extraterrestre.

Esta adorable fábula está llena de magia, de momentos inolvidables, de diálogos irrepetibles y se trata de una historia sabiamente contada, que sin duda cala en el interior del público. En ella además conviven la comedia y el drama, la acción y la pausa, la ficción y la realidad y por si fuera poco, la banda sonora es auténticamente magistral.

Así que lo miren por dónde lo miren, nos encontramos ante una de las grandes joyas que ha dado la historia del cine, con lo que no hay razones para no verla (menos ahora que nuestro amigo Max nos la regala en un impecable 1080p) y para no enternecerse con las peripecias de un extraterrestre, que vino más allá de las estrellas para emocionarnos y para arrancarnos una sonrisa.

En mi caso al menos, lo consiguió.
 
Lastima amigo no volví a descargar aca porque me queda imposible volver a comprar una cuenta premium me di cuenta que es un gasto in necesario jejeje por eso lo que hago es bajarlas por torrent y editarles el audio latino ya que ya lo puedo hacer y me quedan perfectos claro siempre y cuando se puedan ya que algunas no se dejan jejeje saludos!!
 
Muchas gracias. Solo una pregunta es la edicion normal o la de aniversario. Porque la de aniversario tiene mas escenas, nuevos efectos especiales y por ejemplo cuando los persigue la policia fueron cambiados los rifles por radios. Digitalmente. Cual version es. Porque yo baje la anterior y es la clasica. pero la de los nuevos efectos luce mas. Me ayudan a saber cual es
 
Muchas gracias. Solo una pregunta es la edicion normal o la de aniversario. Porque la de aniversario tiene mas escenas, nuevos efectos especiales y por ejemplo cuando los persigue la policia fueron cambiados los rifles por radios. Digitalmente. Cual version es. Porque yo baje la anterior y es la clasica. pero la de los nuevos efectos luce mas. Me ayudan a saber cual es

me parece que es la version clasica amigo, solamente max te puede responder eso
 
Volver