Eastern Promises (2007) 720p BDRip Dual Latino-Inglés [Subt. Esp] (Drama | Mafia)

Maestro Revolver

Well-known member
Miembro del Staff
Administrador
Registro
9 Ago 2012
Mensajes
3.567








TÍTULO ORIGINAL: Eastern Promises
AÑO: 2007
DURACIÓN: 99 min.
PAÍS: Reino Unido
DIRECTOR: David Cronenberg
GUIÓN: Steven Knight
REPARTO: Viggo Mortensen, Naomi Watts, Vincent Cassel, Armin Mueller-Stahl, Sinéad Cusack, Donald Sumpter, Jerzy Skolimowski, Josef Altin, Mina E. Mina, Aleksandar Mikic, Tatiana Maslany
PRODUCTORA: Coproducción GB-USA; Focus Features / BBC Films
GÉNERO: Drama | Mafia. Crimen
: http://www.imdb.com/title/tt0765443/

Premios: 2007: Nominada al Oscar: Mejor actor (Viggo Mortensen)
2007: 3 nominaciones Globo de Oro: Película dramática, bso, actor drama (Mortensen)
2007: 2 nominaciones a los BAFTA: Mejor película británica y actor (Viggo Mortensen)
2007: Nominada al Cesar: Mejor película extranjera
2007: Festival de Toronto: Mejor película (Premio del Público)
2007: Nominada a Critics' Choice Awards: Mejor actor (Mortensen)





El misterioso y atractivo Nikolai es el chófer de una importante familia mafiosa de Europa Oriental. Semyon, el jefe del clan, detrás de una sonrisa encantadora, esconde una naturaleza fría y cruel. La estabilidad familiar se tambalea por culpa de Kirill, su alocado hijo, que hace más caso a Nikolai que a su propio padre. La vida de Nikolai cambia de golpe cuando conoce a Anna, una comadrona que trabaja en un hospital de Londres. Anna, muy afectada por la muerte en el parto de una adolescente, decide buscar a la familia sirviéndose del diario que la chica dejó escrito en ruso. Lo malo es que sus indagaciones desencadenan la ira de los mafiosos.
























La pelicula NO tiene ninguna marca... solo colocamos el nombre de esta web en las capturas






Código:
General
Format                                   : Matroska
Format version                           : Version 2
File size                                : 2.72 GiB
Duration                                 : 1h 40mn
Overall bit rate                         : 3 874 Kbps
Movie name                               : www.club-hd.com
Encoded date                             : UTC 2013-09-10 19:52:02
Writing application                      : mkvmerge v5.7.0 ('The Whirlwind') built on Jul  8 2012 20:08:51
Writing library                          : libebml v1.2.3 + libmatroska v1.3.0

Video
ID                                       : 1
Format                                   : AVC
Format/Info                              : Advanced Video Codec
Format profile                           : High@L4.1
Format settings, CABAC                   : Yes
Format settings, ReFrames                : 9 frames
Codec ID                                 : V_MPEG4/ISO/AVC
Duration                                 : 1h 40mn
Bit rate                                 : 2 785 Kbps
Width                                    : 1 280 pixels
Height                                   : 692 pixels
Display aspect ratio                     : 1.85:1
Frame rate mode                          : Constant
Frame rate                               : 24.000 fps
Color space                              : YUV
Chroma subsampling                       : 4:2:0
Bit depth                                : 8 bits
Scan type                                : Progressive
Bits/(Pixel*Frame)                       : 0.131
Stream size                              : 1.90 GiB (70%)
Title                                    : www.club-hd.com
Writing library                          : x264 core 129 r2245 bc13772
Language                                 : English
Default                                  : Yes
Forced                                   : No

Audio #1
ID                                       : 2
Format                                   : AC-3
Format/Info                              : Audio Coding 3
Mode extension                           : CM (complete main)
Format settings, Endianness              : Big
Codec ID                                 : A_AC3
Duration                                 : 1h 40mn
Bit rate mode                            : Constant
Bit rate                                 : 448 Kbps
Channel(s)                               : 6 channels
Channel positions                        : Front: L C R, Side: L R, LFE
Sampling rate                            : 48.0 KHz
Bit depth                                : 16 bits
Compression mode                         : Lossy
Delay relative to video                  : 20ms
Stream size                              : 322 MiB (12%)
Title                                    : www.club-hd.com > Latino
Language                                 : Spanish
Default                                  : Yes
Forced                                   : No

Audio #2
ID                                       : 3
Format                                   : AC-3
Format/Info                              : Audio Coding 3
Mode extension                           : CM (complete main)
Format settings, Endianness              : Big
Codec ID                                 : A_AC3
Duration                                 : 1h 40mn
Bit rate mode                            : Constant
Bit rate                                 : 640 Kbps
Channel(s)                               : 6 channels
Channel positions                        : Front: L C R, Side: L R, LFE
Sampling rate                            : 48.0 KHz
Bit depth                                : 16 bits
Compression mode                         : Lossy
Stream size                              : 460 MiB (17%)
Title                                    : www.club-hd.com > Inglés
Language                                 : English
Default                                  : No
Forced                                   : No

Text #1
ID                                       : 4
Format                                   : UTF-8
Codec ID                                 : S_TEXT/UTF8
Codec ID/Info                            : UTF-8 Plain Text
Title                                    : Forzados
Language                                 : Spanish
Default                                  : Yes
Forced                                   : No

Text #2
ID                                       : 5
Format                                   : UTF-8
Codec ID                                 : S_TEXT/UTF8
Codec ID/Info                            : UTF-8 Plain Text
Title                                    : Completos
Language                                 : Spanish
Default                                  : No
Forced                                   : No

Menu
00:00:00.000                             : en:Chapter 1
00:07:04.208                             : en:Chapter 2
00:16:41.083                             : en:Chapter 3
00:25:27.500                             : en:Chapter 4
00:32:24.208                             : en:Chapter 5
00:43:20.958                             : en:Chapter 6
00:50:29.708                             : en:Chapter 7
00:58:08.333                             : en:Chapter 8
01:09:53.750                             : en:Chapter 9
01:20:52.333                             : en:Chapter 10
01:27:22.542                             : en:Chapter 11
01:35:27.167                             : en:Chapter 12








Enlaces de Mega y Google Drive solo disponibles para Miembros VIP

Compra tu Membresía VIP y apoya a Club-HD!

ATENCIÓN! Tenemos TODO el material de Club-HD disponible por Mega y Google Drive, enlaces 100% activos y online hasta la fecha

Llévate tus cuentas Mega PRO III gratis con tu membresía VIP!
Todos los posts vivos con links de Mega y Google Drive.
Todo el material de Club-HD desbloqueado y sin publicidad.

Click Aquí para más información.


Para ver este contenido oculto, debes dar click en una de las siguientes reacciones : Like Like, Love Love, Haha Haha, Wow Wow, Sad Sad, Angry Angry

 
Última edición por un moderador:

Usuarios Que Están Viendo Este Tema (Total: 1, Miembros: 0, Invitados: 1)

Quién Leyó Este Tema (Total Miembros: 2)

Arriba