G.I. Joe: The Rise of Cobra (2009) 1080p BDRip Dual Latino-Inglés [Subt. Esp] (Ciencia ficción. Acción)

Maestro Revolver

Well-known member
Miembro del Staff
Administrador
Registro
9 Ago 2012
Mensajes
3.567








TÍTULO ORIGINAL: G.I. Joe: The Rise of Cobra (GIJOE) (Gi Joe)
AÑO: 2009
DURACIÓN: 118 min.
PAÍS: USA
DIRECTOR: Stephen Sommers
GUIÓN: Stuart Beattie, Skip Woods
REPARTO: Channing Tatum, Sienna Miller, Marlon Wayans, Ray Park, Rachel Nichols, Adewale Akinnuoye-Agbaje, Jonathan Pryce, Joseph Gordon-Levitt, Arnold Vosloo, Christopher Eccleston, Dennis Quaid, Lee Byung-hun, Saïd Taghmaoui, Brandon Soo-Hoo, Karolina Kurkova, Brendan Fraser
PRODUCTORA:[/B Paramount Pictures / Spyglass Entertainment / Di Bonaventura Pictures
GÉNERO: Ciencia ficción. Acción. Thriller
: http://www.imdb.com/title/tt1046173/






G.I. Joe es el nombre en clave de una fuerza especial altamente entrenada cuya misión fundamental es defender la libertad humana y la paz mundial. Los valerosos Joes son hombres y mujeres de coraje, dueños de una mezcla dinámica de talentos especiales, personalidad e ingenuidad. Dotados de algunas de las armas más sofisticadas que puedan concebirse, estos individuos constituyen la fuerza más formidable de combate del mundo. Los G.I. Joes combaten a muchas sombrías organizaciones, pero están siempre inmersos en una lucha constante con COBRA, su maligna némesis que pretende dominar al mundo. Como G.I. Joe, COBRA ha reclutado a un grupo de hombres y mujeres increíblemente hábiles y poderosos: sin embargo todos ellos ponen sus talentos al servicio de los designios malignos de COBRA. Siempre alertas, los Joes deben vigilar el mundo entero, ya que algunas veces las cosas no resultan ser lo que aparentan... Adaptación de la popular serie de animación de los 80, que se hizo aún más conocida gracias a su línea de juguetes.




























La pelicula NO tiene ninguna marca... solo colocamos el nombre de esta web en las capturas






Código:
General
Format                                   : Matroska
Format version                           : Version 2
File size                                : 15.5 GiB
Duration                                 : 1h 57mn
Overall bit rate                         : 18.8 Mbps
Movie name                               : www.club-hd.com
Encoded date                             : UTC 2013-07-07 16:02:51
Writing application                      : mkvmerge v5.7.0 ('The Whirlwind') built on Jul  8 2012 20:08:51
Writing library                          : libebml v1.2.3 + libmatroska v1.3.0

Video
ID                                       : 1
Format                                   : AVC
Format/Info                              : Advanced Video Codec
Format profile                           : High@L4.1
Format settings, CABAC                   : Yes
Format settings, ReFrames                : 5 frames
Codec ID                                 : V_MPEG4/ISO/AVC
Duration                                 : 1h 57mn
Bit rate                                 : 16.0 Mbps
Width                                    : 1 920 pixels
Height                                   : 800 pixels
Display aspect ratio                     : 2.40:1
Frame rate mode                          : Constant
Frame rate                               : 23.976 fps
Color space                              : YUV
Chroma subsampling                       : 4:2:0
Bit depth                                : 8 bits
Scan type                                : Progressive
Bits/(Pixel*Frame)                       : 0.434
Stream size                              : 12.9 GiB (83%)
Title                                    : www.club-hd.com
Writing library                          : x264 core 68 r1184M 88b35c2
Language                                 : English
Default                                  : Yes
Forced                                   : No

Audio #1
ID                                       : 2
Format                                   : AC-3
Format/Info                              : Audio Coding 3
Mode extension                           : CM (complete main)
Format settings, Endianness              : Big
Codec ID                                 : A_AC3
Duration                                 : 1h 57mn
Bit rate mode                            : Constant
Bit rate                                 : 640 Kbps
Channel(s)                               : 6 channels
Channel positions                        : Front: L C R, Side: L R, LFE
Sampling rate                            : 48.0 KHz
Bit depth                                : 16 bits
Compression mode                         : Lossy
Stream size                              : 540 MiB (3%)
Title                                    : www.club-hd.com  >>  Latino AC3
Language                                 : Spanish
Default                                  : Yes
Forced                                   : No

Audio #2
ID                                       : 3
Format                                   : AC-3
Format/Info                              : Audio Coding 3
Mode extension                           : CM (complete main)
Format settings, Endianness              : Big
Codec ID                                 : A_AC3
Duration                                 : 1h 57mn
Bit rate mode                            : Constant
Bit rate                                 : 640 Kbps
Channel(s)                               : 6 channels
Channel positions                        : Front: L C R, Side: L R, LFE
Sampling rate                            : 48.0 KHz
Bit depth                                : 16 bits
Compression mode                         : Lossy
Stream size                              : 540 MiB (3%)
Title                                    : www.club-hd.com  >>  Inglés AC3
Language                                 : English
Default                                  : No
Forced                                   : No

Audio #3
ID                                       : 4
Format                                   : DTS
Format/Info                              : Digital Theater Systems
Mode                                     : 16
Format settings, Endianness              : Big
Codec ID                                 : A_DTS
Duration                                 : 1h 57mn
Bit rate mode                            : Constant
Bit rate                                 : 1 509 Kbps
Channel(s)                               : 6 channels
Channel positions                        : Front: L C R, Side: L R, LFE
Sampling rate                            : 48.0 KHz
Bit depth                                : 24 bits
Compression mode                         : Lossy
Stream size                              : 1.24 GiB (8%)
Title                                    : www.club-hd.com  >>  Inglés DTS
Language                                 : English
Default                                  : No
Forced                                   : No

Text #1
ID                                       : 5
Format                                   : UTF-8
Codec ID                                 : S_TEXT/UTF8
Codec ID/Info                            : UTF-8 Plain Text
Title                                    : Forzados
Language                                 : Spanish
Default                                  : Yes
Forced                                   : No

Text #2
ID                                       : 6
Format                                   : UTF-8
Codec ID                                 : S_TEXT/UTF8
Codec ID/Info                            : UTF-8 Plain Text
Language                                 : Spanish
Default                                  : No
Forced                                   : No








Enlaces de Mega y Google Drive solo disponibles para Miembros VIP

Compra tu Membresía VIP y apoya a Club-HD!

ATENCIÓN! Tenemos TODO el material de Club-HD disponible por Mega y Google Drive, enlaces 100% activos y online hasta la fecha

Llévate tus cuentas Mega PRO III gratis con tu membresía VIP!
Todos los posts vivos con links de Mega y Google Drive.
Todo el material de Club-HD desbloqueado y sin publicidad.

Click Aquí para más información.


Para ver este contenido oculto, debes dar click en una de las siguientes reacciones : Like Like, Love Love, Haha Haha, Wow Wow, Sad Sad, Angry Angry

 
Última edición por un moderador:

Usuarios Que Están Viendo Este Tema (Total: 1, Miembros: 0, Invitados: 1)

Quién Leyó Este Tema (Total Miembros: 2)

Arriba