Gangs Of New York (2002) REMASTERED 1080p BDRip Dual Latino-Inglés [Subt. Esp-Ing] (Drama)

Max

Admin

Administrador
Registro
8 Ago 2012
Mensajes
6.237
Reacciones (ptje)
26.943

Gangs_Of_New_York_POSTER.jpg



TÍTULO ORIGINAL: Gangs of New York
TÍTULO EN LATINO: Pandillas de Nueva York
AÑO: 2002
DURACIÓN: 168 min.
PAÍS: Estados Unidos
DIRECTOR: Martin Scorsese
GUIÓN: Jay Cocks, Steven Zaillian, Kenneth Lonergan
MÚSICA: Howard Shore
FOTOGRAFÍA: Michael Ballhaus
REPARTO: Leonardo DiCaprio, Daniel Day-Lewis, Cameron Diaz, Jim Broadbent, John C. Reilly, Henry Thomas, Brendan Gleeson, Liam Neeson, Stephen Graham, Gary Lewis, Cara Seymour, David Hemmings, Lawrence Gilliard Jr., Eddie Marsan, Alec McCowen, Roger Ashton-Griffiths, Michael Byrne, John Sessions, Lucy Davenport
PRODUCTORA: Coproducción USA-Alemania-GB-Italia; Miramax Films
PREMIOS:
2002:
10 Nominaciones a los Oscar, incluyendo mejor película, director, guión, actor (Lewis)
2002: Globos de Oro: Mejor Director y canción original. 5 nominaciones
2002: Premios BAFTA: Mejor actor (Day-Lewis). 12 nom., incluyendo mejor película
2002: Nominada al Cesar: Mejor película extranjera
2002: Círculo de críticos de Nueva York: Mejor actor (Daniel Day-Lewis)
2002: Asociación de Críticos de Los Angeles: Mejor actor (Day-Lewis) y diseño de prod.
2002: American Film Institute (AFI): Top 10 - Mejores películas del año
2002: Critics' Choice Awards: Mejor actor (Day-Lewis). 3 nominaciones
GÉNERO: Drama | Crimen. Siglo XIX

IMDb.png
http://www.imdb.com/title/tt0217505/?ref_=fn_al_tt_1




SINOPSIS.png


Nueva York, 1863. La ciudad está dominada por la corrupción política, y la guerra entre bandas provoca muertos y disturbios. En este contexto, el joven inmigrante irlandés Amsterdam Vallon (Leonardo DiCaprio) quiere vengarse de William Cutting, "Bill el carnicero" (Daniel Day-Lewis), el hombre que mató a su padre (Liam Neeson).




YOUTUBE_LOGO.png






CAPTURAS.png


Gangs_Of_New_York_CAPTURA-1.jpg


Gangs_Of_New_York_CAPTURA-2.jpg


Gangs_Of_New_York_CAPTURA-3.jpg


Gangs_Of_New_York_CAPTURA-4.jpg


Gangs_Of_New_York_CAPTURA-5.jpg


Gangs_Of_New_York_CAPTURA-6.jpg


Gangs_Of_New_York_CAPTURA-7.jpg


Gangs_Of_New_York_CAPTURA-8.jpg


Gangs_Of_New_York_CAPTURA-9.jpg


Gangs_Of_New_York_CAPTURA-10.jpg


Gangs_Of_New_York_CAPTURA-11.jpg


Gangs_Of_New_York_CAPTURA-12.jpg


Gangs_Of_New_York_CAPTURA-13.jpg


Gangs_Of_New_York_CAPTURA-14.jpg





DATOS_TECNICOS.png


Código:
General
Complete name                            : Gangs Of New York (2002) REMASTERED 1080p BDRip Dual Latino-Inglés [Subt. Esp-Ing].mkv
Format                                   : Matroska
Format version                           : Version 2
File size                                : 18.9 GiB
Duration                                 : 2h 46mn
Overall bit rate                         : 16.2 Mbps
Movie name                               : www.club-hd.com --> Gangs Of New York (2002) REMASTERED 1080p BDRip Dual Latino-Inglés [Subt. Esp-Ing]
Encoded date                             : UTC 2013-02-17 13:22:45
Writing application                      : mkvmerge v5.8.0 ('No Sleep / Pillow') built on Sep  2 2012 15:37:04
Writing library                          : libebml v1.2.3 + libmatroska v1.3.0

Video
ID                                       : 1
Format                                   : AVC
Format/Info                              : Advanced Video Codec
Format profile                           : [email protected]
Format settings, CABAC                   : Yes
Format settings, ReFrames                : 5 frames
Codec ID                                 : V_MPEG4/ISO/AVC
Duration                                 : 2h 46mn
Bit rate                                 : 12.9 Mbps
Width                                    : 1 920 pixels
Height                                   : 816 pixels
Display aspect ratio                     : 2.35:1
Frame rate mode                          : Constant
Frame rate                               : 23.976 fps
Color space                              : YUV
Chroma subsampling                       : 4:2:0
Bit depth                                : 8 bits
Scan type                                : Progressive
Bits/(Pixel*Frame)                       : 0.343
Stream size                              : 15.0 GiB (79%)
Title                                    : www.club-hd.com --> Gangs Of New York (2002) REMASTERED 1080p BDRip Dual Latino-Inglés [Subt. Esp-Ing]
Language                                 : English
Default                                  : Yes
Forced                                   : No

Audio #1
ID                                       : 2
Format                                   : AC-3
Format/Info                              : Audio Coding 3
Format profile                           : Dolby Digital
Mode extension                           : CM (complete main)
Format settings, Endianness              : Big
Codec ID                                 : A_AC3
Duration                                 : 2h 46mn
Bit rate mode                            : Constant
Bit rate                                 : 320 Kbps
Channel(s)                               : 2 channels
Channel positions                        : Front: L R
Sampling rate                            : 48.0 KHz
Bit depth                                : 16 bits
Compression mode                         : Lossy
Stream size                              : 381 MiB (2%)
Title                                    : Gangs Of New York (2002) REMASTERED - Español Latino AC3 2.0
Language                                 : Spanish
Default                                  : Yes
Forced                                   : No

Audio #2
ID                                       : 3
Format                                   : AC-3
Format/Info                              : Audio Coding 3
Mode extension                           : CM (complete main)
Format settings, Endianness              : Big
Codec ID                                 : A_AC3
Duration                                 : 2h 46mn
Bit rate mode                            : Constant
Bit rate                                 : 384 Kbps
Channel(s)                               : 6 channels
Channel positions                        : Front: L C R, Side: L R, LFE
Sampling rate                            : 48.0 KHz
Bit depth                                : 16 bits
Compression mode                         : Lossy
Stream size                              : 458 MiB (2%)
Title                                    : [COLOR=#FF0000]Gangs Of New York (2002) REMASTERED - Español Latino AC3 5.1 (Doblaje Original del DVD)[/COLOR]
Language                                 : Spanish
Default                                  : No
Forced                                   : No

Audio #3
ID                                       : 4
Format                                   : AC-3
Format/Info                              : Audio Coding 3
Mode extension                           : CM (complete main)
Format settings, Endianness              : Big
Codec ID                                 : A_AC3
Duration                                 : 2h 46mn
Bit rate mode                            : Constant
Bit rate                                 : 640 Kbps
Channel(s)                               : 6 channels
Channel positions                        : Front: L C R, Side: L R, LFE
Sampling rate                            : 48.0 KHz
Bit depth                                : 16 bits
Compression mode                         : Lossy
Stream size                              : 763 MiB (4%)
Title                                    : Gangs Of New York (2002) REMASTERED - Inglés AC3 5.1
Language                                 : English
Default                                  : No
Forced                                   : No

Audio #4
ID                                       : 5
Format                                   : DTS
Format/Info                              : Digital Theater Systems
Mode                                     : 16
Format settings, Endianness              : Big
Codec ID                                 : A_DTS
Duration                                 : 2h 46mn
Bit rate mode                            : Constant
Bit rate                                 : 1 509 Kbps
Channel(s)                               : 6 channels
Channel positions                        : Front: L C R, Side: L R, LFE
Sampling rate                            : 48.0 KHz
Bit depth                                : 24 bits
Compression mode                         : Lossy
Stream size                              : 1.76 GiB (9%)
Title                                    : Gangs Of New York (2002) REMASTERED - Inglés DTS 5.1
Language                                 : English
Default                                  : No
Forced                                   : No

Audio #5
ID                                       : 6
Format                                   : AC-3
Format/Info                              : Audio Coding 3
Mode extension                           : CM (complete main)
Format settings, Endianness              : Big
Codec ID                                 : A_AC3
Duration                                 : 2h 46mn
Bit rate mode                            : Constant
Bit rate                                 : 192 Kbps
Channel(s)                               : 2 channels
Channel positions                        : Front: L R
Sampling rate                            : 48.0 KHz
Bit depth                                : 16 bits
Compression mode                         : Lossy
Stream size                              : 229 MiB (1%)
Title                                    : Comentarios por Martin Scorsese
Language                                 : English
Default                                  : No
Forced                                   : No

Text #1
ID                                       : 7
Format                                   : UTF-8
Codec ID                                 : S_TEXT/UTF8
Codec ID/Info                            : UTF-8 Plain Text
Title                                    : Subtítulos Español
Language                                 : Spanish
Default                                  : No
Forced                                   : No

Text #2
ID                                       : 8
Format                                   : UTF-8
Codec ID                                 : S_TEXT/UTF8
Codec ID/Info                            : UTF-8 Plain Text
Title                                    : Subtítulos Inglés
Language                                 : English
Default                                  : No
Forced                                   : No




DESCARGA.png




google-drive-vip.png


Tenemos TODO el material de Club-HD disponible por Mega, enlaces 100% activos y online hasta la fecha

Llévate tus cuentas Mega PRO III gratis con tu membresía VIP!
Todos los posts vivos con links de Mega.
Todo el material de Club-HD desbloqueado y sin publicidad.

Obtén más información sobre nuestras Membresías VIP




MEGA.jpg

Tenemos TODO el material de Club-HD disponible por Mega, enlaces 100% activos y online hasta la fecha

Llévate tus cuentas Mega PRO III gratis con tu membresía VIP!
Todos los posts vivos con links de Mega.
Todo el material de Club-HD desbloqueado y sin publicidad.

Obtén más información sobre nuestras Membresías VIP



UPLOADED_BANNER.png

Para ver este contenido oculto, debes dar click en el botón"Like", o cualquiera de las otras reacciones:

Me Gusta Me Gusta, Me Encanta Me Encanta, Jaja Jaja, Wow Wow, Triste Triste, Molesto Molesto
 
Última edición por un moderador:

Les comunico que la versión para el 720p ya está en pleno ripeo.

Saludos amigos!


Max


:LXR::LXR::LXR::LXR::LXR::LXR::LXR:


:dplgar::dplgar::dplgar::dplgar::dplgar::dplgar::dplgar:

 
Última edición:
Gracias Max! Espectacular tu aporte!! Espero la 720 y las agrego al post de Martin Scorsese.

Buenisimo, Gracias maquina! victory
 
Que buena peli! que alegría cuando suben películas tan buenas como esta, espero la 720. Muchas gracias! =)
 
Uffffffff Alta peli, Los conejos rabiosos jajaja!!!! como estallo con el nombre de las pandillas
 
Gracias Max por este gran aporte, espero la 720p xD
 
otro super peliculón!!! esta tenia mucho de verla y por fin la voy a poder ver muchísimas gracias
 
:aplausos:

Me alegra mucho que hayas subido esta gran pelicula en 1080, siempre que veo la oportunidad de descargar una en 1080 asi la tenga en 720 lo hago no hay nada mejor, sos grande :aplausos:

Muchas gracias por semejante aporte.

:dplgar:
 
Justo hoy estaba leyendo sobre esta película.. me la bajo.
Muchas gracias!
 
bye Espectacular aporte!!! Un clásico de clásicos!! Te pasaste Max!! :aplausos::aplausos: Saludos guit4r_2
 
Volver