Scorpions live - Get your sting & blackout (2011) m-1080p BDRip [AC3 - DTS 5.1] (Concierto)

Maestro Revolver

Well-known member
Miembro del Staff
Administrador
Registro
9 Ago 2012
Mensajes
3.567








Los veteranos alemanes del hard rock presentan una grabación de la banda del 15 de abril del 2011, fecha de los conciertos en Saarbrücken, Alemania, con un gran performance en vivo de sus grandes éxitos, incluyendo: "Wind of change", "Blackout", "Rock you like a hurricane", "Still loving you" y "Send me an angel".



Track List:

01 - Intro
02 - Sting in the tail
03 - Make it real
04 - Bad boys running wild
05 - The zoo
06 - Coast to coast
07 - Loving you Sunday morning
08 - The best is yet to come
09 - Send me an angel
10 - Holiday
11 - Raised on rock
12 - Tease me, please me
13 - Dynamite
14 - Kottak attack
15 - Blackout
16 - Six string sting
17 - Big city nights
18 - Still loving you
19 - Wind of change
20 - Rock you like a hurricane
21 - When the smoke is going down





























Código:
General
Format                                   : Matroska
Format version                           : Version 2
File size                                : 4.88 GiB
Duration                                 : 1h 53mn
Overall bit rate                         : 6 133 Kbps
Movie name                               : www.club-hd.com
Encoded date                             : UTC 2013-07-20 19:17:25
Writing application                      : mkvmerge v5.7.0 ('The Whirlwind') built on Jul  8 2012 20:08:51
Writing library                          : libebml v1.2.3 + libmatroska v1.3.0

Video
ID                                       : 1
Format                                   : AVC
Format/Info                              : Advanced Video Codec
Format profile                           : High@L4.1
Format settings, CABAC                   : Yes
Format settings, ReFrames                : 4 frames
Codec ID                                 : V_MPEG4/ISO/AVC
Duration                                 : 1h 53mn
Bit rate                                 : 3 983 Kbps
Width                                    : 1 920 pixels
Height                                   : 1 080 pixels
Display aspect ratio                     : 16:9
Frame rate mode                          : Constant
Frame rate                               : 23.976 fps
Color space                              : YUV
Chroma subsampling                       : 4:2:0
Bit depth                                : 8 bits
Scan type                                : Progressive
Bits/(Pixel*Frame)                       : 0.080
Stream size                              : 3.08 GiB (63%)
Title                                    : www.club-hd.com
Writing library                          : x264 core 104 r1675 2484aa0
Language                                 : English
Default                                  : Yes
Forced                                   : No

Audio #1
ID                                       : 2
Format                                   : AC-3
Format/Info                              : Audio Coding 3
Mode extension                           : CM (complete main)
Format settings, Endianness              : Big
Codec ID                                 : A_AC3
Duration                                 : 1h 53mn
Bit rate mode                            : Constant
Bit rate                                 : 640 Kbps
Channel(s)                               : 6 channels
Channel positions                        : Front: L C R, Side: L R, LFE
Sampling rate                            : 48.0 KHz
Bit depth                                : 16 bits
Compression mode                         : Lossy
Stream size                              : 522 MiB (10%)
Title                                    : AC3
Language                                 : English
Default                                  : Yes
Forced                                   : No

Audio #2
ID                                       : 3
Format                                   : DTS
Format/Info                              : Digital Theater Systems
Mode                                     : 16
Format settings, Endianness              : Big
Codec ID                                 : A_DTS
Duration                                 : 1h 53mn
Bit rate mode                            : Constant
Bit rate                                 : 1 509 Kbps
Channel(s)                               : 6 channels
Channel positions                        : Front: L C R, Side: L R, LFE
Sampling rate                            : 48.0 KHz
Bit depth                                : 24 bits
Compression mode                         : Lossy
Stream size                              : 1.20 GiB (25%)
Title                                    : DTS
Language                                 : English
Default                                  : No
Forced                                   : No

Menu
00:00:00.000                             : en:01 - Intro
00:01:48.525                             : en:02 - Sting in the tail
00:05:15.898                             : en:03 - Make it real
00:09:12.969                             : en:04 - Bad boys running wild
00:13:09.205                             : en:05 - The zoo
00:18:59.138                             : en:06 - Coast to coast
00:24:12.868                             : en:07 - Loving you Sunday morning
00:29:00.739                             : en:08 - The best is yet to come
00:36:53.628                             : en:09 - Send me an angel
00:41:19.477                             : en:10 - Holiday
00:48:10.888                             : en:11 - Raised on rock
00:52:19.553                             : en:12 - Tease me, please me
00:57:50.884                             : en:13 - Dynamite
01:01:42.699                             : en:14 - Kottak attack
01:08:45.121                             : en:15 - Blackout
01:12:55.371                             : en:16 - Six string sting
01:15:53.549                             : en:17 - Big city nights
01:25:45.348                             : en:18 - Still loving you
01:32:24.956                             : en:19 - Wind of change
01:37:50.865                             : en:20 - Rock you like a hurricane
01:46:32.594                             : en:21 - When the smoke is going down
01:51:12.957                             : en:22 - Créditos








Enlaces de Mega y Google Drive solo disponibles para Miembros VIP

Compra tu Membresía VIP y apoya a Club-HD!

ATENCIÓN! Tenemos TODO el material de Club-HD disponible por Mega y Google Drive, enlaces 100% activos y online hasta la fecha

Llévate tus cuentas Mega PRO III gratis con tu membresía VIP!
Todos los posts vivos con links de Mega y Google Drive.
Todo el material de Club-HD desbloqueado y sin publicidad.

Click Aquí para más información.



Para ver este contenido oculto, debes dar click en una de las siguientes reacciones : Like Like, Love Love, Haha Haha, Wow Wow, Sad Sad, Angry Angry
 
Última edición por un moderador:

Usuarios Que Están Viendo Este Tema (Total: 1, Miembros: 0, Invitados: 1)

Quién Leyó Este Tema (Total Miembros: 3)

Arriba