Street Fighter II: The Animated Movie (1994) m-720p Trial Latino-Japonés-Inglés [Subt. Esp] (Animación)

Maestro Revolver

Well-known member
Miembro del Staff
Administrador
Registro
9 Ago 2012
Mensajes
3.569
Reacciones
59.366
Puntos
113

Reputation:









TÍTULO ORIGINAL: Sutorîto Faitâ II gekijô-ban (Street Fighter II: The Animated Movie)
AÑO: 1994
DURACIÓN: 98 min.
PAÍS: Japón
DIRECTOR: Gisaburo Sugii
GUIÓN: Kenichi Imai, Gisaburo Sugii
REPARTO: Animation
PRODUCTORA: Capcom Entertainment / Sony Music Entertainment
GÉNERO: Animación. Acción | Artes marciales. Videojuego
: http://www.imdb.com/title/tt0114563/






Shadowlaw, sindicato del crimen organizado que trafica con drogas y armas por todo el mundo, se está consolidando como una amenaza mundial para todos los gobiernos democráticos de la tierra, alcanzando unos niveles de terrorismo internacional cada vez más preocupantes para la estabilidad mundial. Una investigación de la Interpol, liderada por Chun-Li y Guile, tiende como objetivo desvelar la base paramilitar desde donde se organizan los atentados terroristas de Shadowlaw, para posteriormente eliminarla bajo un ataque sorpresa. Para llevar a cabo la misión cuenta con Ryu, uno de los mejores luchadores de artes marciales del mundo. Por desgracia, su mejor amigo, Ken, ha sido capturado por Shadowlaw y convertido en un poderoso y fiel servidor... Adaptación libre del videojuego "Street Fighter II".
























La pelicula NO tiene ninguna marca... solo colocamos el nombre de esta web en las capturas






Código:
General
Format                                   : Matroska
Format version                           : Version 2
File size                                : 3.17 GiB
Duration                                 : 1h 41mn
Overall bit rate                         : 4 473 Kbps
Movie name                               : www.club-hd.com
Encoded date                             : UTC 2013-04-06 22:15:38
Writing application                      : mkvmerge v5.7.0 ('The Whirlwind') built on Jul  8 2012 20:08:51
Writing library                          : libebml v1.2.3 + libmatroska v1.3.0

Video
ID                                       : 1
Format                                   : AVC
Format/Info                              : Advanced Video Codec
Format profile                           : High@L4.1
Format settings, CABAC                   : Yes
Format settings, ReFrames                : 6 frames
Codec ID                                 : V_MPEG4/ISO/AVC
Duration                                 : 1h 41mn
Bit rate                                 : 3 000 Kbps
Width                                    : 1 280 pixels
Height                                   : 690 pixels
Display aspect ratio                     : 1.85:1
Frame rate mode                          : Constant
Frame rate                               : 23.976 fps
Color space                              : YUV
Chroma subsampling                       : 4:2:0
Bit depth                                : 8 bits
Scan type                                : Progressive
Bits/(Pixel*Frame)                       : 0.142
Stream size                              : 2.06 GiB (65%)
Title                                    : www.club-hd.com
Writing library                          : x264 core 130 r2273 b3065e6
Language                                 : English
Default                                  : Yes
Forced                                   : No

Audio #1
ID                                       : 2
Format                                   : AC-3
Format/Info                              : Audio Coding 3
Mode extension                           : CM (complete main)
Format settings, Endianness              : Big
Codec ID                                 : A_AC3
Duration                                 : 1h 41mn
Bit rate mode                            : Constant
Bit rate                                 : 192 Kbps
Channel(s)                               : 2 channels
Channel positions                        : Front: L R
Sampling rate                            : 48.0 KHz
Bit depth                                : 16 bits
Compression mode                         : Lossy
Stream size                              : 139 MiB (4%)
Title                                    : www.club-hd.com  >>  Latino
Language                                 : Spanish
Default                                  : Yes
Forced                                   : No

Audio #2
ID                                       : 3
Format                                   : AC-3
Format/Info                              : Audio Coding 3
Mode extension                           : CM (complete main)
Format settings, Endianness              : Big
Codec ID                                 : A_AC3
Duration                                 : 1h 41mn
Bit rate mode                            : Constant
Bit rate                                 : 640 Kbps
Channel(s)                               : 2 channels
Channel positions                        : Front: L R
Sampling rate                            : 48.0 KHz
Bit depth                                : 16 bits
Compression mode                         : Lossy
Stream size                              : 464 MiB (14%)
Title                                    : www.club-hd.com  >>  Japonés
Language                                 : Japanese
Default                                  : No
Forced                                   : No

Audio #3
ID                                       : 4
Format                                   : AC-3
Format/Info                              : Audio Coding 3
Mode extension                           : CM (complete main)
Format settings, Endianness              : Big
Codec ID                                 : A_AC3
Duration                                 : 1h 41mn
Bit rate mode                            : Constant
Bit rate                                 : 640 Kbps
Channel(s)                               : 2 channels
Channel positions                        : Front: L R
Sampling rate                            : 48.0 KHz
Bit depth                                : 16 bits
Compression mode                         : Lossy
Stream size                              : 464 MiB (14%)
Title                                    : www.club-hd.com  >>  Inglés
Language                                 : English
Default                                  : No
Forced                                   : No

Text
ID                                       : 5
Format                                   : UTF-8
Codec ID                                 : S_TEXT/UTF8
Codec ID/Info                            : UTF-8 Plain Text
Language                                 : Spanish
Default                                  : No
Forced                                   : No








Enlaces de Mega y Fireload solo disponibles para Miembros VIP

Compra tu Membresía VIP y apoya a Club-HD!

ATENCIÓN! Tenemos TODO el material de Club-HD disponible por Mega y Fireload, enlaces 100% activos y online hasta la fecha

Llévate tus cuentas Mega PRO II gratis con tu membresía VIP!
Todos los posts vivos con links de Mega y Fireload.
Todo el material de Club-HD desbloqueado y sin publicidad.

Click Aquí para más información.



Para ver este contenido oculto, debes dar click en una de las siguientes reacciones : Like Like, Love Love, Haha Haha, Wow Wow, Sad Sad, Angry Angry

 
Última edición por un moderador:

DoomsDay Elite

Well-known member
Registro
5 Sep 2012
Mensajes
1.225
Reacciones
1.101
Puntos
113

Reputation:

tremendo aporte que me va recordar mis tiempos de antes cuando solia jugar los juegos y ponerme cintas en la cabeza para jugar de Ryu y usar guantes de tela jajajajaja gracias !!
 

damisaiyan

Active member
Registro
27 Ago 2012
Mensajes
502
Reacciones
53
Puntos
28
Edad
33
Sitio web
www.youtube.com

Reputation:

gran pelicua recuerdo averla visto hace años, pero que version de doblaje trae porque creo que hay dos la mexicana y no se si la otra sea argentina o colmbiana aun asi muchas gracias
 

jcasiraghi

Active member
Registro
29 Ago 2012
Mensajes
695
Reacciones
106
Puntos
43

Reputation:

Gracias pero por favor digan me que van a subir la versión 1080p! :dplgar:
 

Usuarios Que Están Viendo Este Tema (Total: 1, Miembros: 0, Invitados: 1)

Arriba