The Amazing Spider-Man (2012) 1080p BDRip Dual Latino-Inglés [Subt. Esp-Ing] (Fantástico. Acción. Romance)

Maestro Revolver

Well-known member
Miembro del Staff
Administrador
Registro
9 Ago 2012
Mensajes
3.567








TÍTULO ORIGINAL: The Amazing Spider-Man (The Amazing Spiderman)
AÑO: 2012
DURACIÓN: 136 min.
PAÍS: USA
DIRECTOR: Marc Webb
GUIÓN: Steve Kloves, James Vanderbilt, Alvin Sargent (Personajes: Stan Lee, Steve Ditko)
REPARTO: Andrew Garfield, Emma Stone, Rhys Ifans, Sally Field, Martin Sheen, Denis Leary, Campbell Scott, Embeth Davidtz, Irrfan Khan, C. Thomas Howell, Stan Lee
PRODUCTORA: Sony Pictures / Columbia Pictures / Marvel Studios
GÉNERO: Fantástico. Acción. Romance | Adolescencia. Superhéroes. Cómic. Marvel Comics. 3-D
http://www.imdb.com/title/tt0948470/






Como la mayoría de los adolescentes de su edad, Peter está intentando descubrir quién es y cómo ha llegado a ser lo que es. En su viaje para atar los cabos de su pasado descubre un secreto que guardaba su padre, un secreto que finalmente dará forma a su destino como Spiderman.





























La pelicula NO tiene ninguna marca... solo colocamos el nombre de esta web en las capturas






Código:
General
Format                           : Matroska
Format version                   : Version 2
File size                        : 10.4 GiB
Duration                         : 2h 16mn
Overall bit rate                 : 10.9 Mbps
Movie name                       : www.club-hd.com
Encoded date                     : UTC 2012-10-25 23:47:49
Writing application              : mkvmerge v5.7.0 ('The Whirlwind') built on Jul  8 2012 20:08:51
Writing library                  : libebml v1.2.3 + libmatroska v1.3.0

Video
ID                               : 1
Format                           : AVC
Format/Info                      : Advanced Video Codec
Format profile                   : High@L4.1
Format settings, CABAC           : Yes
Format settings, ReFrames        : 5 frames
Codec ID                         : V_MPEG4/ISO/AVC
Duration                         : 2h 16mn
Bit rate                         : 8 370 Kbps
Width                            : 1 920 pixels
Height                           : 804 pixels
Display aspect ratio             : 2.40:1
Frame rate                       : 23.976 fps
Color space                      : YUV
Chroma subsampling               : 4:2:0
Bit depth                        : 8 bits
Scan type                        : Progressive
Bits/(Pixel*Frame)               : 0.226
Stream size                      : 7.76 GiB (75%)
Title                            : www.club-hd.com
Writing library                  : x264 core 128 r2216 198a7ea
Language                         : English
Default                          : Yes
Forced                           : No

Audio #1
ID                               : 2
Format                           : AC-3
Format/Info                      : Audio Coding 3
Mode extension                   : CM (complete main)
Codec ID                         : A_AC3
Duration                         : 2h 16mn
Bit rate mode                    : Constant
Bit rate                         : 384 Kbps
Channel(s)                       : 6 channels
Channel positions                : Front: L C R, Side: L R, LFE
Sampling rate                    : 48.0 KHz
Bit depth                        : 16 bits
Compression mode                 : Lossy
Delay relative to video          : 24ms
Stream size                      : 374 MiB (4%)
Title                            : www.club-hd.com  >>  Latino AC3 5.1
Language                         : Spanish
Default                          : Yes
Forced                           : No

Audio #2
ID                               : 3
Format                           : AC-3
Format/Info                      : Audio Coding 3
Mode extension                   : CM (complete main)
Codec ID                         : A_AC3
Duration                         : 2h 16mn
Bit rate mode                    : Constant
Bit rate                         : 640 Kbps
Channel(s)                       : 6 channels
Channel positions                : Front: L C R, Side: L R, LFE
Sampling rate                    : 48.0 KHz
Bit depth                        : 16 bits
Compression mode                 : Lossy
Stream size                      : 624 MiB (6%)
Title                            : www.club-hd.com  >>  Inglés AC3 5.1
Language                         : English
Default                          : No
Forced                           : No

Audio #3
ID                               : 4
Format                           : DTS
Format/Info                      : Digital Theater Systems
Codec ID                         : A_DTS
Duration                         : 2h 16mn
Bit rate mode                    : Constant
Bit rate                         : 1 510 Kbps
Channel(s)                       : 6 channels
Channel positions                : Front: L C R, Side: L R, LFE
Sampling rate                    : 48.0 KHz
Bit depth                        : 24 bits
Compression mode                 : Lossy
Stream size                      : 1.44 GiB (14%)
Title                            : www.club-hd.com  >>  Inglés DTS 5.1
Language                         : English
Default                          : No
Forced                           : No

Text #1
ID                               : 5
Format                           : UTF-8
Codec ID                         : S_TEXT/UTF8
Codec ID/Info                    : UTF-8 Plain Text
Language                         : Spanish
Default                          : No
Forced                           : No

Text #2
ID                               : 6
Format                           : UTF-8
Codec ID                         : S_TEXT/UTF8
Codec ID/Info                    : UTF-8 Plain Text
Language                         : English
Default                          : No
Forced                           : No

Menu
00:00:00.000                     : en:00:00:00.000
00:07:45.924                     : en:00:07:45.924
00:14:39.670                     : en:00:14:39.670
00:22:57.543                     : en:00:22:57.543
00:32:58.226                     : en:00:32:58.226
00:41:25.066                     : en:00:41:25.066
00:48:42.503                     : en:00:48:42.503
00:55:10.933                     : en:00:55:10.933
01:03:17.293                     : en:01:03:17.293
01:12:29.011                     : en:01:12:29.011
01:17:51.750                     : en:01:17:51.750
01:24:38.949                     : en:01:24:38.949
01:34:04.556                     : en:01:34:04.556
01:42:59.548                     : en:01:42:59.548
01:52:16.355                     : en:01:52:16.355
02:00:52.912                     : en:02:00:52.912











Enlaces de Mega y Google Drive solo disponibles para Miembros VIP

Compra tu Membresía VIP y apoya a Club-HD!

ATENCIÓN! Tenemos TODO el material de Club-HD disponible por Mega y Google Drive, enlaces 100% activos y online hasta la fecha

Llévate tus cuentas Mega PRO III gratis con tu membresía VIP!
Todos los posts vivos con links de Mega y Google Drive.
Todo el material de Club-HD desbloqueado y sin publicidad.

Click Aquí para más información.



Enlaces de Mega y Google Drive solo disponibles para Miembros VIP

Compra tu Membresía VIP y apoya a Club-HD!

ATENCIÓN! Tenemos TODO el material de Club-HD disponible por Mega y Google Drive, enlaces 100% activos y online hasta la fecha

Llévate tus cuentas Mega PRO III gratis con tu membresía VIP!
Todos los posts vivos con links de Mega y Google Drive.
Todo el material de Club-HD desbloqueado y sin publicidad.

Click Aquí para más información.



Para ver este contenido oculto, debes dar click en una de las siguientes reacciones : Like Like, Love Love, Haha Haha, Wow Wow, Sad Sad, Angry Angry



Para ver este contenido oculto, debes dar click en una de las siguientes reacciones : Like Like, Love Love, Haha Haha, Wow Wow, Sad Sad, Angry Angry




Para ver este contenido oculto, debes dar click en una de las siguientes reacciones : Like Like, Love Love, Haha Haha, Wow Wow, Sad Sad, Angry Angry
 
Última edición:

Joker

Well-known member
Miembro del Staff
Súper Moderador
Registro
27 Ago 2012
Mensajes
1.349
Ubicación
Arkham Asylum
Desc_g_

:OHHH:

Esta película la estaba esperando con la calidad que ustedes acostumbran a compartir desde que la vi en el cine, hoy no me despegue de la pagina desde que leí en el chat que aquí estaría la película =P

Muchísimas gracias

Saludos :D
 

Omar Herrera

Well-known member
Miembro del Staff
Súper Moderador
Miembro VIP
Registro
27 Ago 2012
Mensajes
1.236
Edad
33
Ubicación
Managua
Excelente mi muy estimado Revolver, esperaba ser el primero en comentar pero me ganaron.. jejeje
Desc_g_
Gracias mi amigo :LXR:
 

Usuarios Que Están Viendo Este Tema (Total: 1, Miembros: 0, Invitados: 1)

Quién Leyó Este Tema (Total Miembros: 4)

Arriba