The Bourne Legacy (2012) 1080p BDRip Dual Latino-Inglés [Subt. Esp-Ing] (Acción. Thriller. Intriga)

Maestro Revolver

Well-known member
Miembro del Staff
Administrador
Registro
9 Ago 2012
Mensajes
3.569
Reacciones
59.361
Puntos
113

Reputation:









TÍTULO ORIGINAL: The Bourne Legacy
AÑO: 2012
DURACIÓN: 135 min.
PAÍS: USA
DIRECTOR: Tony Gilroy
GUIÓN: Tony Gilroy, Dan Gilroy
REPARTO: Jeremy Renner, Rachel Weisz, Edward Norton, Joan Allen, Albert Finney, Oscar Isaac, Scott Glenn, Stacy Keach, David Strathairn, Corey Stoll
PRODUCTORA: Universal Pictures / Bourne Film Productions / Bourne Four Productions / Captivate Entertainment
GÉNERO: Acción. Thriller. Intriga | Espionaje. Spin-off
: http://www.imdb.com/title/tt1194173/






Aaron Cross es creado por el programa Outcome. Los agentes de este programa no han sido diseñados para asesinar, sino para funcionar en solitario en misiones altamente arriesgadas. Sin embargo, el programa se convierte en un peligro cuando la historia de Bourne pasa a ser de dominio público.
























La pelicula NO tiene ninguna marca... solo colocamos el nombre de esta web en las capturas






Código:
General
Format                                   : Matroska
Format version                           : Version 2
File size                                : 11.0 GiB
Duration                                 : 2h 15mn
Overall bit rate                         : 11.7 Mbps
Movie name                               : www.club-hd.com
Encoded date                             : UTC 2012-12-01 00:10:44
Writing application                      : mkvmerge v5.7.0 ('The Whirlwind') built on Jul  8 2012 20:08:51
Writing library                          : libebml v1.2.3 + libmatroska v1.3.0

Video
ID                                       : 1
Format                                   : AVC
Format/Info                              : Advanced Video Codec
Format profile                           : High@L4.1
Format settings, CABAC                   : Yes
Format settings, ReFrames                : 5 frames
Codec ID                                 : V_MPEG4/ISO/AVC
Duration                                 : 2h 15mn
Bit rate                                 : 8 922 Kbps
Width                                    : 1 920 pixels
Height                                   : 800 pixels
Display aspect ratio                     : 2.40:1
Frame rate mode                          : Constant
Frame rate                               : 23.976 fps
Color space                              : YUV
Chroma subsampling                       : 4:2:0
Bit depth                                : 8 bits
Scan type                                : Progressive
Bits/(Pixel*Frame)                       : 0.242
Stream size                              : 8.19 GiB (74%)
Title                                    : www.club-hd.com
Writing library                          : x264 core 129 r2230 1cffe9f
Language                                 : English
Default                                  : Yes
Forced                                   : No

Audio #1
ID                                       : 2
Format                                   : AC-3
Format/Info                              : Audio Coding 3
Mode extension                           : CM (complete main)
Format settings, Endianness              : Big
Codec ID                                 : A_AC3
Duration                                 : 2h 15mn
Bit rate mode                            : Constant
Bit rate                                 : 640 Kbps
Channel(s)                               : 6 channels
Channel positions                        : Front: L C R, Side: L R, LFE
Sampling rate                            : 48.0 KHz
Bit depth                                : 16 bits
Compression mode                         : Lossy
Stream size                              : 618 MiB (5%)
Title                                    : www.club-hd.com  >>  Latino AC3 5.1
Language                                 : Spanish
Default                                  : Yes
Forced                                   : No

Audio #2
ID                                       : 3
Format                                   : AC-3
Format/Info                              : Audio Coding 3
Mode extension                           : CM (complete main)
Format settings, Endianness              : Big
Codec ID                                 : A_AC3
Duration                                 : 2h 15mn
Bit rate mode                            : Constant
Bit rate                                 : 640 Kbps
Channel(s)                               : 6 channels
Channel positions                        : Front: L C R, Side: L R, LFE
Sampling rate                            : 48.0 KHz
Bit depth                                : 16 bits
Compression mode                         : Lossy
Stream size                              : 618 MiB (5%)
Title                                    : www.club-hd.com  >>  Inglés AC3 5.1
Language                                 : English
Default                                  : No
Forced                                   : No

Audio #3
ID                                       : 4
Format                                   : DTS
Format/Info                              : Digital Theater Systems
Mode                                     : 16
Format settings, Endianness              : Big
Codec ID                                 : A_DTS
Duration                                 : 2h 15mn
Bit rate mode                            : Constant
Bit rate                                 : 1 509 Kbps
Channel(s)                               : 6 channels
Channel positions                        : Front: L C R, Side: L R, LFE
Sampling rate                            : 48.0 KHz
Bit depth                                : 24 bits
Compression mode                         : Lossy
Stream size                              : 1.42 GiB (13%)
Title                                    : www.club-hd.com  >>  Inglés DTS 5.1
Language                                 : English
Default                                  : No
Forced                                   : No

Text #1
ID                                       : 5
Format                                   : UTF-8
Codec ID                                 : S_TEXT/UTF8
Codec ID/Info                            : UTF-8 Plain Text
Title                                    : Forzados
Language                                 : Spanish
Default                                  : Yes
Forced                                   : No

Text #2
ID                                       : 6
Format                                   : UTF-8
Codec ID                                 : S_TEXT/UTF8
Codec ID/Info                            : UTF-8 Plain Text
Language                                 : Spanish
Default                                  : No
Forced                                   : No

Text #3
ID                                       : 7
Format                                   : UTF-8
Codec ID                                 : S_TEXT/UTF8
Codec ID/Info                            : UTF-8 Plain Text
Language                                 : English
Default                                  : No
Forced                                   : No

Menu
00:00:00.000                             : en:00:00:00.000
00:08:43.690                             : en:00:08:43.690
00:14:26.616                             : en:00:14:26.616
00:19:57.488                             : en:00:19:57.488
00:27:53.297                             : en:00:27:53.297
00:34:18.265                             : en:00:34:18.265
00:42:52.403                             : en:00:42:52.403
00:47:57.374                             : en:00:47:57.374
00:53:56.066                             : en:00:53:56.066
01:00:29.167                             : en:01:00:29.167
01:07:36.636                             : en:01:07:36.636
01:14:36.972                             : en:01:14:36.972
01:22:39.204                             : en:01:22:39.204
01:28:37.687                             : en:01:28:37.687
01:36:39.043                             : en:01:36:39.043
01:41:05.685                             : en:01:41:05.685
01:45:07.968                             : en:01:45:07.968
01:52:15.520                             : en:01:52:15.520
02:00:07.283                             : en:02:00:07.283
02:05:06.416                             : en:02:05:06.416




Sin Contraseña | Simple Extracción


Links Intercambiables





Enlaces de Mega y Fireload solo disponibles para Miembros VIP

Compra tu Membresía VIP y apoya a Club-HD!

ATENCIÓN! Tenemos TODO el material de Club-HD disponible por Mega y Fireload, enlaces 100% activos y online hasta la fecha

Llévate tus cuentas Mega PRO II gratis con tu membresía VIP!
Todos los posts vivos con links de Mega y Fireload.
Todo el material de Club-HD desbloqueado y sin publicidad.

Click Aquí para más información.




Enlaces de Mega y Fireload solo disponibles para Miembros VIP

Compra tu Membresía VIP y apoya a Club-HD!

ATENCIÓN! Tenemos TODO el material de Club-HD disponible por Mega y Fireload, enlaces 100% activos y online hasta la fecha

Llévate tus cuentas Mega PRO II gratis con tu membresía VIP!
Todos los posts vivos con links de Mega y Fireload.
Todo el material de Club-HD desbloqueado y sin publicidad.

Click Aquí para más información.



Enlaces de Mega y Fireload solo disponibles para Miembros VIP

Compra tu Membresía VIP y apoya a Club-HD!

ATENCIÓN! Tenemos TODO el material de Club-HD disponible por Mega y Fireload, enlaces 100% activos y online hasta la fecha

Llévate tus cuentas Mega PRO II gratis con tu membresía VIP!
Todos los posts vivos con links de Mega y Fireload.
Todo el material de Club-HD desbloqueado y sin publicidad.

Click Aquí para más información.



Para ver este contenido oculto, debes dar click en una de las siguientes reacciones : Like Like, Love Love, Haha Haha, Wow Wow, Sad Sad, Angry Angry
 
Última edición:

jab1986

New member
Registro
28 Ago 2012
Mensajes
22
Reacciones
0
Puntos
0
Edad
35

Reputation:

Bajando a ver..espero que sea igual a las ottrras de bourne
 

HecLorenz

Member
Registro
27 Ago 2012
Mensajes
194
Reacciones
12
Puntos
18

Reputation:

Muchas gracias revolver, cuando tenga tiempo la descargaré.
 

jcasiraghi

Active member
Registro
29 Ago 2012
Mensajes
695
Reacciones
106
Puntos
43

Reputation:

Gracias, estaba a punto de descargar los otros links y me salieron muertos, bastante extraño al principio y ahora veo la razón.
 

DJHotLatino

New member
Registro
29 Ago 2012
Mensajes
348
Reacciones
11
Puntos
0
Edad
56

Reputation:

Que mala onda y aqui que tengo limite de bajar y pues ya desperdicie 11 g para nada bueno pues ni modo ojala pudieran subir el audio latino ya que tuve que bajar la peli de otro lado pero me interesaria el audio en español.
 

kinkiyi

Descansa en paz querido amigo..., Siempre te reco
Colaborador
Registro
29 Ago 2012
Mensajes
587
Reacciones
40
Puntos
0
Edad
66
Ubicación
Panamá, provincia de Colón

Reputation:

Es fantastico el trabajo que hacen uds. hay gente que se molesta por si descargaron y los links tuvieron algun error.pues quiero que sepan que aprecio en muy alta estima el colosal trabajo que se toman uds. para que nosotros trA nquilamente bajemos estas extraordinarias peliculas en la mas alta calidad de video y sonido...no me importa volver a descargar todos los links de nuevo.....uds. son fantasticos.....MIL GRACIAS....debo agregar que en todo este tiempo (desde antes de los registros al club) nunca ...jamas tuve ningun problema en descargar alguna pelicula asi es que esto no es nada.....A DESCARGAR DE NUEVO :)
 

sicocubo

New member
Registro
1 Nov 2012
Mensajes
101
Reacciones
1
Puntos
0
Edad
36

Reputation:

Muchas gracias , habia bajado la anterior que subieron , pero al parecer si tenia el error, pero no hat bronca, va de nuevo!!!
Saludos!!!
 

Dragonaluro

Well-known member
Miembro VIP
Registro
30 Ago 2012
Mensajes
1.012
Reacciones
49
Puntos
48

Reputation:

A mi mercaba error en el .rar 3 gracias por la resubida
Saludos
 

Usuarios Que Están Viendo Este Tema (Total: 1, Miembros: 0, Invitados: 1)

Arriba