Top Gun (1986) 1080p BDRip Dual Latino-Inglés [Subt. Esp] (Acción. Drama. Romance)

Maestro Revolver

Well-known member
Miembro del Staff
Administrador
Registro
9 Ago 2012
Mensajes
3.569
Reacciones
59.480
Puntos
113

Reputation:









TÍTULO ORIGINAL: Top Gun
AÑO: 1986
DURACIÓN: 110 min.
PAÍS: USA
DIRECTOR: Tony Scott
GUIÓN: Jim Cash, Jack Epps Jr.
REPARTO: Tom Cruise, Kelly McGillis, Tom Skerritt, Anthony Edwards, Val Kilmer, Meg Ryan, Michael Ironside, John Stockwell, Rick Rossovich, Tim Robbins
PRODUCTORA: Paramount Pictures
GÉNERO: Acción. Drama. Romance | Aviones. Ejército
: http://www.imdb.es/title/tt0092099/






La Marina de los Estados Unidos ha creado una escuela de élite para pilotos con el fin de sacar una promoción de expertos en técnicas de combate. En la academia, más conocida como Top Gun, a los mejores se les entrena para ser intrépidos y fríos al mismo tiempo, capaces de no perder los nervios en situaciones extremas y de no inmutarse al romper la barrera del sonido a los mandos de un F-14. A la escuela llega el joven Maverick, famoso por su temeraria aunque brillante forma de pilotar.
























La pelicula NO tiene ninguna marca... solo colocamos el nombre de esta web en las capturas






Código:
General
Format                                   : Matroska
Format version                           : Version 4 / Version 2
File size                                : 13.0 GiB
Duration                                 : 1h 50mn
Overall bit rate                         : 16.7 Mbps
Movie name                               : www.club-hd.com
Encoded date                             : UTC 2014-09-14 18:57:04
Writing application                      : mkvmerge v7.1.0 ('Good Love') 64bit built on Jul 27 2014 13:06:55
Writing library                          : libebml v1.3.0 + libmatroska v1.4.1

Video
ID                                       : 1
Format                                   : AVC
Format/Info                              : Advanced Video Codec
Format profile                           : High@L4.1
Format settings, CABAC                   : Yes
Format settings, ReFrames                : 4 frames
Format settings, GOP                     : N=1
Codec ID                                 : V_MPEG4/ISO/AVC
Duration                                 : 1h 50mn
Bit rate                                 : 13.5 Mbps
Width                                    : 1 920 pixels
Height                                   : 802 pixels
Display aspect ratio                     : 2.40:1
Frame rate mode                          : Constant
Frame rate                               : 23.976 fps
Color space                              : YUV
Chroma subsampling                       : 4:2:0
Bit depth                                : 8 bits
Scan type                                : Progressive
Bits/(Pixel*Frame)                       : 0.367
Stream size                              : 10.5 GiB (81%)
Title                                    : www.club-hd.com
Writing library                          : x264 core 67 r1130M 8475977
Language                                 : English
Default                                  : Yes
Forced                                   : No

Audio #1
ID                                       : 2
Format                                   : AC-3
Format/Info                              : Audio Coding 3
Mode extension                           : CM (complete main)
Format settings, Endianness              : Big
Codec ID                                 : A_AC3
Duration                                 : 1h 50mn
Bit rate mode                            : Constant
Bit rate                                 : 640 Kbps
Channel(s)                               : 6 channels
Channel positions                        : Front: L C R, Side: L R, LFE
Sampling rate                            : 48.0 KHz
Bit depth                                : 16 bits
Compression mode                         : Lossy
Delay relative to video                  : 16ms
Stream size                              : 508 MiB (4%)
Title                                    : www.club-hd.com  >>  Latino
Language                                 : Spanish
Default                                  : Yes
Forced                                   : No

Audio #2
ID                                       : 3
Format                                   : AC-3
Format/Info                              : Audio Coding 3
Mode extension                           : CM (complete main)
Format settings, Endianness              : Big
Codec ID                                 : A_AC3
Duration                                 : 1h 50mn
Bit rate mode                            : Constant
Bit rate                                 : 512 Kbps
Channel(s)                               : 6 channels
Channel positions                        : Front: L C R, Side: L R, LFE
Sampling rate                            : 48.0 KHz
Bit depth                                : 16 bits
Compression mode                         : Lossy
Stream size                              : 406 MiB (3%)
Title                                    : www.club-hd.com  >>  Inglés AC3
Language                                 : English
Default                                  : No
Forced                                   : No

Audio #3
ID                                       : 4
Format                                   : DTS
Format/Info                              : Digital Theater Systems
Mode                                     : 16
Format settings, Endianness              : Big
Codec ID                                 : A_DTS
Duration                                 : 1h 50mn
Bit rate mode                            : Constant
Bit rate                                 : 1 510 Kbps
Channel(s)                               : 6 channels
Channel positions                        : Front: L C R, Side: L R, LFE
Sampling rate                            : 48.0 KHz
Bit depth                                : 24 bits
Compression mode                         : Lossy
Stream size                              : 1.17 GiB (9%)
Title                                    : www.club-hd.com  >>  Inglés DTS 1536Kbps
Language                                 : English
Default                                  : No
Forced                                   : No

Audio #4
ID                                       : 5
Format                                   : AC-3
Format/Info                              : Audio Coding 3
Format profile                           : Dolby Digital
Mode extension                           : CM (complete main)
Format settings, Endianness              : Big
Codec ID                                 : A_AC3
Duration                                 : 1h 50mn
Bit rate mode                            : Constant
Bit rate                                 : 192 Kbps
Channel(s)                               : 2 channels
Channel positions                        : Front: L R
Sampling rate                            : 48.0 KHz
Bit depth                                : 16 bits
Compression mode                         : Lossy
Stream size                              : 152 MiB (1%)
Title                                    : Commentary
Language                                 : English
Default                                  : No
Forced                                   : No

Text
ID                                       : 6
Format                                   : UTF-8
Codec ID                                 : S_TEXT/UTF8
Codec ID/Info                            : UTF-8 Plain Text
Title                                    : www.club-hd.com
Language                                 : Spanish
Default                                  : No
Forced                                   : No




Contraseña: www.club-hd.com










Enlaces de Mega y Fireload solo disponibles para Miembros VIP

Compra tu Membresía VIP y apoya a Club-HD!

ATENCIÓN! Tenemos TODO el material de Club-HD disponible por Mega y Fireload, enlaces 100% activos y online hasta la fecha

Llévate tus cuentas Mega PRO II gratis con tu membresía VIP!
Todos los posts vivos con links de Mega y Fireload.
Todo el material de Club-HD desbloqueado y sin publicidad.

Click Aquí para más información.


Enlaces de Mega y Fireload solo disponibles para Miembros VIP

Compra tu Membresía VIP y apoya a Club-HD!

ATENCIÓN! Tenemos TODO el material de Club-HD disponible por Mega y Fireload, enlaces 100% activos y online hasta la fecha

Llévate tus cuentas Mega PRO II gratis con tu membresía VIP!
Todos los posts vivos con links de Mega y Fireload.
Todo el material de Club-HD desbloqueado y sin publicidad.

Click Aquí para más información.



Para ver este contenido oculto, debes dar click en una de las siguientes reacciones : Like Like, Love Love, Haha Haha, Wow Wow, Sad Sad, Angry Angry



Para ver este contenido oculto, debes dar click en una de las siguientes reacciones : Like Like, Love Love, Haha Haha, Wow Wow, Sad Sad, Angry Angry

 
Última edición por un moderador:

viqueirs

New member
Registro
28 Ago 2012
Mensajes
507
Reacciones
4
Puntos
0
Ubicación
argentina

Reputation:

aaa Buenisimo, Que pelicula sin dudas a los de mi edad se recuerdan mucho, eramos todos pilotos.-
 

yorsh73

New member
Registro
27 Ago 2012
Mensajes
33
Reacciones
1
Puntos
0
Ubicación
México

Reputation:

Y siguen los excelente aportes amigos Revolver y Max.... excelentes clasicos estan aportando!!! A descargar para recordar buenas epocas!!! jejeje!!!
 

Usuarios Que Están Viendo Este Tema (Total: 1, Miembros: 0, Invitados: 1)

Arriba